• 白玉兰奖何冰获最佳男主角奖 马伊琍获最佳女主角奖 2019-05-19
  • 山西发布2018年端午节旅游消费提示 2019-05-07
  • 天津人出境自驾指数全国前四 出境租车自驾成时尚 2019-05-07
  • 合肥:敬业医生头天接受手术 次日打着吊瓶工作 2019-05-01
  • 6队交易伦纳德筹码曝光力证身价暴跌 湖人费城诚意不足 2019-04-28
  • 图说互联网(21期)iPhone的10年 下一个10年属于谁? 2019-04-10
  • 2016年兰州市政府网站留言办理获网民好评 2019-04-09
  • 八宝山革命公墓开展红色主题活动 2019-04-09
  • 说你好,就是好,不好也得好。 2019-04-04
  • 哦。对了,那些成天嚷嚷“亲不亲,阶级亲”的人应该把这些货真价实的“无铲阶级”接回家去。[哈哈] 2019-04-04
  • 一件常识的事情都没有讲清楚,还自称懂逻辑?无理可说了,就瞎扯。别人小学有没有毕业与你何干。 2019-03-23
  • (原创首发)法治不行,正义难成,法治有力,正义显功。 2019-03-23
  • 以大众传媒搭建心灵之桥(大家手笔) 2019-03-19
  • 打持久战不好,打速决战——将中美贸易快速引导到清零——美国就受不了了——然后由我主导休战谈判。效果是“两败俱不伤”,用我的体制力平息真正的贸易战,夺回主动权! 2019-03-19
  • 重判梁天琦法官遭网络暴力 港司法机构:已转律政司跟进 2019-03-07
  • 福建十一选五开奖

     找回密码
     注册(分享大片)
    查看: 250|回复: 13
    打印 上一主题 下一主题

    福建体彩11选五走势: [欢乐满人间2]2018.1080p.BluRay.REMUX.AVC.DTS-HD.MA.TrueHD.7.1.Atmos-FGT 36GB

    [复制链接]
    跳转到指定楼层
    1#
    发表于 3 天前 | 只看该作者 回帖奖励 |倒序浏览 |阅读模式
    4K天堂

    ◎译  名 欢乐满人间2 / 新欢乐满人间 / 爱・满人间(台) / 魔法保姆(港)
    ◎片  名 Mary Poppins Returns
    ◎年  代 2018
    ◎产  地 美国
    ◎类  别 歌舞
    ◎语  言 英语
    ◎上映日期 2018-12-19(美国)
    ◎IMDb评分 7.2/10 from 34277 users
    ◎IMDb链接 //www.imdb.com/title/tt5028340
    ◎豆瓣评分 7.1/10 from 1735 users
    ◎蓝光高清   //www.4ktt.com
    ◎片  长 130分钟
    ◎导  演 罗伯・马歇尔 Rob Marshall
    ◎编  剧 大卫・麦基 David Magee / 帕梅拉・林登・特拉弗斯 P.L. Travers
    ◎主  演 艾米莉・布朗特 Emily Blunt
          梅丽尔・斯特里普 Meryl Streep
          科林・费尔斯 Colin Firth
          朱丽・沃特斯 Julie Walters
          安吉拉・兰斯伯瑞 Angela Lansbury
          艾米莉・莫迪默 Emily Mortimer
          本・卫肖 Ben Whishaw
          迪克・范・戴克 Dick Van Dyke
          大卫・沃纳 David Warner
          林-曼努尔・米兰达 Lin-Manuel Miranda
          杰里米・斯威夫特 Jeremy Swift
          寇布勒・霍尔德布鲁克-史密斯 Kobna Holdbrook-Smith
          匹克西・戴夫斯 Pixie Davies
          吉姆・诺顿 Jim Norton
          贝恩・科拉科 Bern Collao
          迈克尔・科布 Michael Cobb
          伯纳多・桑托斯 Bernardo Santos
          乔安娜・希雅 Johanna Thea
          露丝・霍洛克斯 Ruth Horrocks
          贾格・帕特尔 Jag Patel


    ◎简  介  
      迪士尼公司最近被爆出正计划为1964年的歌舞片《欢乐满人间》(Mary Poppins)筹拍续集,续集的导演是凭借《芝加哥》获得奥斯卡最佳影片奖的罗伯・马歇尔(Rob Marshall)。

      据悉,《欢乐满人间》的续集剧本由《寻找梦幻岛》、《少年派的奇幻漂流》编剧大卫・马吉(David Magee )创作,而故事就设定在1964年电影的20年后,主角依然是玛丽・波平斯和班克斯一家。

      作为一部歌舞片,《欢乐满人间2》的音乐创作也是重中之重,为此罗伯・马歇尔专门找到了《发胶》(Hairspray)的音乐创作人Marc Shaiman和 Scott Wittman,他们俩将为这部续集打造原创歌曲和全新的配乐。


    ◎获奖情况  
      第91届奥斯卡金像奖(2019)
      最佳艺术指导(提名) 戈登・西姆 / 约翰・迈尔
      最佳服装设计(提名) 桑迪・鲍威尔
      最佳原创配乐(提名) 马克・夏曼
      最佳原创歌曲(提名) 斯科特・维特曼 / 马克・夏曼


      第76届金球奖(2019)
      电影类 最佳音乐/喜剧片(提名)
      电影类 音乐/喜剧片最佳男主角(提名) 林-曼努尔・米兰达
      电影类 音乐/喜剧片最佳女主角(提名) 艾米莉・布朗特
      电影类 最佳原创配乐(提名)


      第72届英国电影学院奖(2019)
      电影奖 最佳服装设计(提名) 桑迪・鲍威尔
      电影奖 最佳艺术指导(提名) 戈登・西姆 / 约翰・迈尔
      电影奖 最佳原创音乐(提名) 马克・夏曼


      第46届动画安妮奖(2019)
      最佳分镜(提名)
      最佳艺术指导(提名)
      最佳角色设计(提名)
      最佳真人电影动画角色
      最佳特殊动画


      第25届美国演员工会奖(2019)
      电影奖 最佳女主角(提名) 艾米莉・布朗特


      第23届美国艺术指导工会奖(2019)
      电影奖 最佳幻想电影艺术指导(提名) 约翰・迈尔


      第21届美国服装设计工会奖(2019)
      年代电影最佳服装设计(提名) 桑迪・鲍威尔


      第6届美国化妆及发型设计工会奖(2019)
      电影类最佳年代戏化妆(提名)
      电影类最佳年代戏发型设计(提名)


      第66届美国音效剪辑协会奖(2019)
      金卷轴奖 最佳电影对白剪辑(提名)
      金卷轴奖 最佳音乐片音乐剪辑(提名)


      第90届美国国家评论协会奖(2018)
      年度佳片


      第24届美国评论家选择电影奖(2019)
      最佳影片(提名)
      最佳女主角(提名) 艾米莉・布朗特
      喜剧片最佳女主角(提名) 艾米莉・布朗特
      最佳配乐(提名)
      最佳歌曲(提名)
      最佳美术指导(提名)
      最佳服装设计(提名)
      最佳视觉效果(提名)


      第19届美国电影学会奖(2018)
      年度佳片


      第23届金卫星奖(2019)
      电影部门 最佳喜剧/音乐片(提名)
      电影部门 喜剧/音乐片最佳男主角(提名) 林-曼努尔・米兰达
      电影部门 喜剧/音乐片最佳女主角(提名) 艾米莉・布朗特
      电影部门 最佳原创歌曲(提名)
      电影部门 最佳音效(提名)
      电影部门 最佳美术指导


      第17届华盛顿影评人协会奖(2018)
      最佳艺术指导(提名)


      第39届伦敦影评人协会奖(2019)
      年度英国/爱尔兰女演员(提名) 艾米莉・布朗特


      第18届凤凰城影评人协会奖(2018)
      十佳影片

    Video
    ID : 1
    Format : AVC
    Format/Info : Advanced Video Codec
    Format profile : High @ L4.1
    Format settings : CABAC / 4 Ref Frames
    Format settings, CABAC : Yes
    Format settings, ReFrames : 4 frames
    Codec ID : V_MPEG4/ISO/AVC
    Duration : 2 h 10 min
    Bit rate mode : Variable
    Bit rate : 27.1 Mb/s
    Maximum bit rate : 34.0 Mb/s
    Width : 1 920 pixels
    Height : 1 080 pixels
    Display aspect ratio : 16:9
    Frame rate mode : Constant
    Frame rate : 23.976 (24000/1001) FPS
    Color space : YUV
    Chroma subsampling : 4:2:0
    Bit depth : 8 bits
    Scan type : Progressive
    Bits/(Pixel*Frame) : 0.545
    Stream size : 24.7 GiB (68%)
    Title : Mary.Poppins.Returns.2018.1080p.BluRay.REMUX.DTS-HD.MA.TrueHD.7.1.Atmos-FGT
    Language : English
    Default : No
    Forced : No

    Audio #1
    ID : 2
    Format : MLP FBA 16-ch
    Format/Info : Meridian Lossless Packing FBA with 16-channel presentation
    Commercial name : Dolby TrueHD with Dolby Atmos
    Codec ID : A_TRUEHD
    Duration : 2 h 10 min
    Bit rate mode : Variable
    Bit rate : 4 253 kb/s
    Maximum bit rate : 6 366 kb/s
    Channel(s) : 8 channels
    Channel layout : L R C LFE Ls Rs Lb Rb
    Sampling rate : 48.0 kHz
    Frame rate : 1 200.000 FPS (40 SPF)
    Compression mode : Lossless
    Delay relative to video : 32 ms
    Stream size : 3.88 GiB (11%)
    Title : Mary.Poppins.Returns.2018.1080p.BluRay.REMUX.DTS-HD.MA.TrueHD.7.1.Atmos-FGT
    Language : English
    Default : Yes
    Forced : No
    Number of dynamic objects : 13
    Bed channel count : 1 channel
    Bed channel configuration : LFE

    Audio #2
    ID : 3
    Format : DTS XLL
    Format/Info : Digital Theater Systems
    Commercial name : DTS-HD Master Audio
    Codec ID : A_DTS
    Duration : 2 h 10 min
    Bit rate mode : Variable
    Bit rate : 4 351 kb/s
    Channel(s) : 8 channels
    Channel layout : C L R LFE Lb Rb Lss Rss
    Sampling rate : 48.0 kHz
    Frame rate : 93.750 FPS (512 SPF)
    Bit depth : 24 bits
    Compression mode : Lossless
    Stream size : 3.97 GiB (11%)
    Title : Mary.Poppins.Returns.2018.1080p.BluRay.REMUX.DTS-HD.MA.TrueHD.7.1.Atmos-FGT
    Language : English
    Default : No
    Forced : No

    Audio #3
    ID : 4
    Format : AC-3
    Format/Info : Audio Coding 3
    Commercial name : Dolby Digital
    Codec ID : A_AC3
    Duration : 2 h 10 min
    Bit rate mode : Constant
    Bit rate : 640 kb/s
    Channel(s) : 6 channels
    Channel layout : L R C LFE Ls Rs
    Sampling rate : 48.0 kHz
    Frame rate : 31.250 FPS (1536 SPF)
    Bit depth : 16 bits
    Compression mode : Lossy
    Delay relative to video : 32 ms
    Stream size : 597 MiB (2%)
    Title : Mary.Poppins.Returns.2018.1080p.BluRay.REMUX.DTS-HD.MA.TrueHD.7.1.Atmos-FGT
    Language : English
    Service kind : Complete Main
    Default : No
    Forced : No

    Audio #4
    ID : 5
    Format : DTS
    Format/Info : Digital Theater Systems
    Codec ID : A_DTS
    Duration : 2 h 10 min
    Bit rate mode : Constant
    Bit rate : 1 509 kb/s
    Channel(s) : 6 channels
    Channel layout : C L R Ls Rs LFE
    Sampling rate : 48.0 kHz
    Frame rate : 93.750 FPS (512 SPF)
    Bit depth : 24 bits
    Compression mode : Lossy
    Stream size : 1.38 GiB (4%)
    Title : Mary.Poppins.Returns.2018.1080p.BluRay.REMUX.DTS-HD.MA.TrueHD.7.1.Atmos-FGT
    Language : English
    Default : No
    Forced : No

    Audio #5
    ID : 6
    Format : AC-3
    Format/Info : Audio Coding 3
    Commercial name : Dolby Digital
    Codec ID : A_AC3
    Duration : 2 h 10 min
    Bit rate mode : Constant
    Bit rate : 320 kb/s
    Channel(s) : 2 channels
    Channel layout : L R
    Sampling rate : 48.0 kHz
    Frame rate : 31.250 FPS (1536 SPF)
    Bit depth : 16 bits
    Compression mode : Lossy
    Stream size : 299 MiB (1%)
    Title : Mary.Poppins.Returns.2018.1080p.BluRay.REMUX.DTS-HD.MA.TrueHD.7.1.Atmos-FGT
    Language : English
    Service kind : Complete Main
    Default : No
    Forced : No

    Audio #6
    ID : 7
    Format : AC-3
    Format/Info : Audio Coding 3
    Commercial name : Dolby Digital
    Codec ID : A_AC3
    Duration : 2 h 10 min
    Bit rate mode : Constant
    Bit rate : 640 kb/s
    Channel(s) : 6 channels
    Channel layout : L R C LFE Ls Rs
    Sampling rate : 48.0 kHz
    Frame rate : 31.250 FPS (1536 SPF)
    Bit depth : 16 bits
    Compression mode : Lossy
    Stream size : 597 MiB (2%)
    Title : Mary.Poppins.Returns.2018.1080p.BluRay.REMUX.DTS-HD.MA.TrueHD.7.1.Atmos-FGT
    Language : French
    Service kind : Complete Main
    Default : No
    Forced : No

    Audio #7
    ID : 8
    Format : AC-3
    Format/Info : Audio Coding 3
    Commercial name : Dolby Digital
    Codec ID : A_AC3
    Duration : 2 h 10 min
    Bit rate mode : Constant
    Bit rate : 640 kb/s
    Channel(s) : 6 channels
    Channel layout : L R C LFE Ls Rs
    Sampling rate : 48.0 kHz
    Frame rate : 31.250 FPS (1536 SPF)
    Bit depth : 16 bits
    Compression mode : Lossy
    Stream size : 597 MiB (2%)
    Title : Mary.Poppins.Returns.2018.1080p.BluRay.REMUX.DTS-HD.MA.TrueHD.7.1.Atmos-FGT
    Language : Spanish
    Service kind : Complete Main
    Default : No
    Forced : No

    Text #1
    ID : 9
    Format : UTF-8
    Codec ID : S_TEXT/UTF8
    Codec ID/Info : UTF-8 Plain Text
    Duration : 2 h 5 min
    Bit rate : 77 b/s
    Count of elements : 2276
    Stream size : 70.9 KiB (0%)
    Title : English-SRT
    Language : English
    Default : Yes
    Forced : No     



    游客,如果您要查看本帖隐藏内容请回复,如果您想无广告、免回复、下载附件免影视币请开通VIP:VIP传送门


    提示:如迅雷下载提示"任务出错"、"因版权无法下载",请更换【迅雷5】
    2#
    发表于 3 天前 | 只看该作者
    [欢乐满人间2看看
    3#
    发表于 3 天前 | 只看该作者
    这么多奖项,应该比较有内涵,谢谢lz
    4#
    发表于 3 天前 | 只看该作者
    欢乐满人间2]2018.1080p.BluRay.
    5#
    发表于 3 天前 | 只看该作者
    找了好久 谢谢分享
    6#
    发表于 前天 00:24 | 只看该作者
    12345667890
    7#
    发表于 前天 08:38 | 只看该作者
    谢谢版主分享高分获奖精彩电影!
    8#
    发表于 前天 10:16 | 只看该作者
    感謝樓主分享!
    9#
    发表于 前天 10:48 | 只看该作者
    希望欢乐洒满人间o(* ̄︶ ̄*)o
    10#
    发表于 前天 12:14 | 只看该作者
    感谢楼主分享资源
    11#
    发表于 前天 13:07 | 只看该作者
    谢谢分享   看看
    12#
    发表于 前天 19:02 | 只看该作者
    感谢楼主分享!永远支持古哥影视
    13#
    发表于 昨天 09:57 | 只看该作者
    谢谢楼主分享,支持论坛
    14#
    发表于 11 小时前 | 只看该作者
    获奖的大片,拜读
    懒得打字嘛,点击右侧快捷回复->
    您需要登录后才可以回帖 登录 | 注册(分享大片)

    本版积分规则

    福建十一选五开奖
    本站提供网上学习交流和自由讨论使用,所有资源均来自互联网公开渠道,发布和个人言论并不代表本站立场,本站不负任何责任.
    如发现有侵权行为,请与我们联系.我们将立刻从网站上删除,并向所有持版权者致最深歉意.
    影视帝国论坛已经安全运行

    福建十一选五开奖

    QQ|小黑屋|手机版|Archiver|福建十一选五开奖 ( 苏ICP备12074540号 )

    GMT+8, 2019-3-18 21:25 , Processed in 0.208065 second(s), 21 queries , Gzip On.

    Powered by Discuz! X3.2

    © 2001-2013 Comsenz Inc.

    快速回复 福建十一选五开奖 返回列表
  • 白玉兰奖何冰获最佳男主角奖 马伊琍获最佳女主角奖 2019-05-19
  • 山西发布2018年端午节旅游消费提示 2019-05-07
  • 天津人出境自驾指数全国前四 出境租车自驾成时尚 2019-05-07
  • 合肥:敬业医生头天接受手术 次日打着吊瓶工作 2019-05-01
  • 6队交易伦纳德筹码曝光力证身价暴跌 湖人费城诚意不足 2019-04-28
  • 图说互联网(21期)iPhone的10年 下一个10年属于谁? 2019-04-10
  • 2016年兰州市政府网站留言办理获网民好评 2019-04-09
  • 八宝山革命公墓开展红色主题活动 2019-04-09
  • 说你好,就是好,不好也得好。 2019-04-04
  • 哦。对了,那些成天嚷嚷“亲不亲,阶级亲”的人应该把这些货真价实的“无铲阶级”接回家去。[哈哈] 2019-04-04
  • 一件常识的事情都没有讲清楚,还自称懂逻辑?无理可说了,就瞎扯。别人小学有没有毕业与你何干。 2019-03-23
  • (原创首发)法治不行,正义难成,法治有力,正义显功。 2019-03-23
  • 以大众传媒搭建心灵之桥(大家手笔) 2019-03-19
  • 打持久战不好,打速决战——将中美贸易快速引导到清零——美国就受不了了——然后由我主导休战谈判。效果是“两败俱不伤”,用我的体制力平息真正的贸易战,夺回主动权! 2019-03-19
  • 重判梁天琦法官遭网络暴力 港司法机构:已转律政司跟进 2019-03-07