• 白玉兰奖何冰获最佳男主角奖 马伊琍获最佳女主角奖 2019-05-19
  • 山西发布2018年端午节旅游消费提示 2019-05-07
  • 天津人出境自驾指数全国前四 出境租车自驾成时尚 2019-05-07
  • 合肥:敬业医生头天接受手术 次日打着吊瓶工作 2019-05-01
  • 6队交易伦纳德筹码曝光力证身价暴跌 湖人费城诚意不足 2019-04-28
  • 图说互联网(21期)iPhone的10年 下一个10年属于谁? 2019-04-10
  • 2016年兰州市政府网站留言办理获网民好评 2019-04-09
  • 八宝山革命公墓开展红色主题活动 2019-04-09
  • 说你好,就是好,不好也得好。 2019-04-04
  • 哦。对了,那些成天嚷嚷“亲不亲,阶级亲”的人应该把这些货真价实的“无铲阶级”接回家去。[哈哈] 2019-04-04
  • 一件常识的事情都没有讲清楚,还自称懂逻辑?无理可说了,就瞎扯。别人小学有没有毕业与你何干。 2019-03-23
  • (原创首发)法治不行,正义难成,法治有力,正义显功。 2019-03-23
  • 以大众传媒搭建心灵之桥(大家手笔) 2019-03-19
  • 打持久战不好,打速决战——将中美贸易快速引导到清零——美国就受不了了——然后由我主导休战谈判。效果是“两败俱不伤”,用我的体制力平息真正的贸易战,夺回主动权! 2019-03-19
  • 重判梁天琦法官遭网络暴力 港司法机构:已转律政司跟进 2019-03-07
  • 福建十一选五开奖

     找回密码
     注册(分享大片)
    查看: 202|回复: 7
    打印 上一主题 下一主题

    体彩31选7开奖结果今天: [720P] [重塑人生]Second.Act.2018.720p.BluRay.x264-DRONES 4.37GB

    [复制链接]
    跳转到指定楼层
    1#
    发表于 前天 22:31 | 只看该作者 |只看大图 回帖奖励 |倒序浏览 |阅读模式
    4K天堂

    ◎译  名 重塑人生 / 职场女王攻略(港)
    ◎片  名 Second Act
    ◎年  代 2018
    ◎产  地 美国
    ◎类  别 喜剧 / 爱情
    ◎语  言 英语
    ◎上映日期 2018-12-14(美国)
    ◎IMDb评分 6.0/10 from 4874 users
    ◎IMDb链接 //www.imdb.com/title/tt2126357
    ◎豆瓣评分 5.2/10 from 117 users
    ◎蓝光高清   //www.4ktt.com
    ◎片  长 103分钟
    ◎导  演 彼得·西格尔 Peter Segal
    ◎编  剧 贾斯汀·扎克汉姆 Justin Zackham / 伊莱恩·戈德史密斯-托马斯 Elaine Goldsmith-Thomas
    ◎主  演 詹妮弗·洛佩兹 Jennifer Lopez
          凡妮莎·哈金斯 Vanessa Hudgens
          丽亚·雷米尼 Leah Remini
          特里特·威廉斯 Treat Williams
          米洛·文堤米利亚 Milo Ventimiglia
          安娜莱吉·阿什福特 Annaleigh Ashford
          查琳·易 Charlyne Yi
          艾伦·艾森伯格 Alan Aisenberg
          弗雷迪·史卓玛 Freddie Stroma
          大卫·弗利 Dave Foley
          拉里·米勒 Larry Miller
          迪尔德雷·弗里尔 Dierdre Friel
          拉克雷塔 Lacretta
          丹·布卡廷斯基 Dan Bucatinsky
          伊丽莎白·马苏茨 Elizabeth Masucci
          迈克尔·波特曼 Michael Boatman
          艾德·朱厄特 Ed Jewett
          铃木杏奈 Anna Suzuki
          艾伦·克莱格霍恩 Ellen Cleghorne



    ◎简  介  
      本片由彼得·西格尔([初恋50次])执导,贾斯汀·扎克汉姆([遗愿清单])操刀剧本。故事围绕大型零售商女店员(洛佩兹饰)展开。她努力让人生与众不同,更要向世人表明街头智慧的强大。凡妮莎·哈金斯在片中饰演年轻的消费品公司执行官。

    Video
    ID : 1
    Format : AVC
    Format/Info : Advanced Video Codec
    Format profile : High @ L4.1
    Format settings : CABAC / 5 Ref Frames
    Format settings, CABAC : Yes
    Format settings, ReFrames : 5 frames
    Codec ID : V_MPEG4/ISO/AVC
    Duration : 1 h 44 min
    Bit rate : 4 505 kb/s
    Width : 1 280 pixels
    Height : 536 pixels
    Display aspect ratio : 2.40:1
    Frame rate mode : Constant
    Frame rate : 23.976 (24000/1001) FPS
    Color space : YUV
    Chroma subsampling : 4:2:0
    Bit depth : 8 bits
    Scan type : Progressive
    Bits/(Pixel*Frame) : 0.274
    Stream size : 3.27 GiB (75%)
    Writing library : x264 core 157 r2945 72db437
    Encoding settings : cabac=1 / ref=5 / deblock=1:-3:-3 / analyse=0x3:0x113 / me=umh / subme=8 / psy=1 / psy_rd=1.00:0.00 / mixed_ref=1 / me_range=16 / chroma_me=1 / trellis=1 / 8x8dct=1 / cqm=0 / deadzone=21,11 / fast_pskip=1 / chroma_qp_offset=-2 / threads=17 / lookahead_threads=2 / sliced_threads=0 / nr=0 / decimate=1 / interlaced=0 / bluray_compat=0 / constrained_intra=0 / bframes=3 / b_pyramid=2 / b_adapt=1 / b_bias=0 / direct=3 / weightb=1 / open_gop=0 / weightp=2 / keyint=250 / keyint_min=23 / scenecut=40 / intra_refresh=0 / rc_lookahead=50 / rc=2pass / mbtree=1 / bitrate=4505 / ratetol=1.0 / qcomp=0.60 / qpmin=0 / qpmax=69 / qpstep=4 / cplxblur=20.0 / qblur=0.5 / ip_ratio=1.40 / aq=1:1.00
    Language : English
    Default : Yes
    Forced : No

    Audio
    ID : 2
    Format : DTS
    Format/Info : Digital Theater Systems
    Codec ID : A_DTS
    Duration : 1 h 44 min
    Bit rate mode : Constant
    Bit rate : 1 509 kb/s
    Channel(s) : 6 channels
    Channel layout : C L R Ls Rs LFE
    Sampling rate : 48.0 kHz
    Frame rate : 93.750 FPS (512 SPF)
    Bit depth : 24 bits
    Compression mode : Lossy
    Stream size : 1.10 GiB (25%)
    Language : English
    Default : Yes
    Forced : No




    Second.Act.2018.720p.BluRay.x264-DRONES.torrent (44.52 KB, 下载次数: 24)

    提示:如迅雷下载提示"任务出错"、"因版权无法下载",请更换【迅雷5】
    2#
    发表于 昨天 07:45 | 只看该作者
    谢谢楼主分享
    3#
    发表于 昨天 17:08 | 只看该作者
    楼主发贴辛苦了,谢谢楼主分享!我觉得古哥影视的电影是最值得收藏的!
    4#
    发表于 昨天 18:29 | 只看该作者
    感谢楼主分享!永远支持古哥影视
    5#
    发表于 昨天 21:03 | 只看该作者
    楼主发贴辛苦了,谢谢楼主分享!我觉得古哥影视的电影是最值得收藏的!
    6#
    发表于 11 小时前 | 只看该作者

    这个帖子不回对不起自己!我想我是一天也不能离开古哥影视。
    7#
    发表于 10 小时前 | 只看该作者
    楼主发贴辛苦了,谢谢楼主分享!我觉得古哥影视的电影是最值得收藏的!
    8#
    发表于 3 小时前 | 只看该作者

    其实我一直觉得楼主的品味不错!呵呵!古哥影视真的太棒了,多年的高清电影都在这下载的!
    懒得打字嘛,点击右侧快捷回复->
    您需要登录后才可以回帖 登录 | 注册(分享大片)

    本版积分规则

    福建十一选五开奖
    本站提供网上学习交流和自由讨论使用,所有资源均来自互联网公开渠道,发布和个人言论并不代表本站立场,本站不负任何责任.
    如发现有侵权行为,请与我们联系.我们将立刻从网站上删除,并向所有持版权者致最深歉意.
    影视帝国论坛已经安全运行

    福建十一选五开奖

    QQ|小黑屋|手机版|Archiver|福建十一选五开奖 ( 苏ICP备12074540号 )

    GMT+8, 2019-3-18 21:08 , Processed in 0.248637 second(s), 21 queries , Gzip On.

    Powered by Discuz! X3.2

    © 2001-2013 Comsenz Inc.

    快速回复 福建十一选五开奖 返回列表
  • 白玉兰奖何冰获最佳男主角奖 马伊琍获最佳女主角奖 2019-05-19
  • 山西发布2018年端午节旅游消费提示 2019-05-07
  • 天津人出境自驾指数全国前四 出境租车自驾成时尚 2019-05-07
  • 合肥:敬业医生头天接受手术 次日打着吊瓶工作 2019-05-01
  • 6队交易伦纳德筹码曝光力证身价暴跌 湖人费城诚意不足 2019-04-28
  • 图说互联网(21期)iPhone的10年 下一个10年属于谁? 2019-04-10
  • 2016年兰州市政府网站留言办理获网民好评 2019-04-09
  • 八宝山革命公墓开展红色主题活动 2019-04-09
  • 说你好,就是好,不好也得好。 2019-04-04
  • 哦。对了,那些成天嚷嚷“亲不亲,阶级亲”的人应该把这些货真价实的“无铲阶级”接回家去。[哈哈] 2019-04-04
  • 一件常识的事情都没有讲清楚,还自称懂逻辑?无理可说了,就瞎扯。别人小学有没有毕业与你何干。 2019-03-23
  • (原创首发)法治不行,正义难成,法治有力,正义显功。 2019-03-23
  • 以大众传媒搭建心灵之桥(大家手笔) 2019-03-19
  • 打持久战不好,打速决战——将中美贸易快速引导到清零——美国就受不了了——然后由我主导休战谈判。效果是“两败俱不伤”,用我的体制力平息真正的贸易战,夺回主动权! 2019-03-19
  • 重判梁天琦法官遭网络暴力 港司法机构:已转律政司跟进 2019-03-07