• 图说互联网(21期)iPhone的10年 下一个10年属于谁? 2019-04-10
  • 2016年兰州市政府网站留言办理获网民好评 2019-04-09
  • 八宝山革命公墓开展红色主题活动 2019-04-09
  • 说你好,就是好,不好也得好。 2019-04-04
  • 哦。对了,那些成天嚷嚷“亲不亲,阶级亲”的人应该把这些货真价实的“无铲阶级”接回家去。[哈哈] 2019-04-04
  • 一件常识的事情都没有讲清楚,还自称懂逻辑?无理可说了,就瞎扯。别人小学有没有毕业与你何干。 2019-03-23
  • (原创首发)法治不行,正义难成,法治有力,正义显功。 2019-03-23
  • 以大众传媒搭建心灵之桥(大家手笔) 2019-03-19
  • 打持久战不好,打速决战——将中美贸易快速引导到清零——美国就受不了了——然后由我主导休战谈判。效果是“两败俱不伤”,用我的体制力平息真正的贸易战,夺回主动权! 2019-03-19
  • 重判梁天琦法官遭网络暴力 港司法机构:已转律政司跟进 2019-03-07
  • 吴舜泽:环保产业高质量发展非常重要 2019-03-03
  • 《格萨尔》史诗汉译本数量达15部350万余字 2018-11-30
  • 高清:中国男篮抵达洛杉矶 长途飞行队员略显疲惫 2018-11-30
  • 福建十一选五开奖

     找回密码
     注册(分享大片)
    查看: 601|回复: 147
    打印 上一主题 下一主题

    福建快三走势图下载: [1080P] [叶问外传:张天志]2018.CHINESE.1080p.BluRay.x264.DTS-CHD 国语/9.43G

      [复制链接]
    跳转到指定楼层
    1#
    发表于 前天 22:42 | 只看该作者 回帖奖励 |倒序浏览 |阅读模式
    4K天堂

    ◎译  名 叶问外传:张天志 / 叶问外传 / 叶问系列之张天志 / 张天志 / 张天志传
    ◎片  名 IP Man Side Story: Cheung Tin Chi / Master Z: Ip Man Legacy
    ◎年  代 2018
    ◎国  家 中国
    ◎类  别 剧情/动作
    ◎语  言 普通话
    ◎IMDb评分 7.2/10 from 480 users
    ◎IMDB链接 //www.imdb.com/title/tt7262882
    ◎蓝光高清   //www.4ktt.com
    ◎片  长 1h 47mn
    ◎导  演 袁和平 Woo-ping Yuen
    ◎主  演 张晋 Max Zhang
          戴夫·巴蒂斯塔 Dave Bautista
          柳岩 Yan Liu
          杨紫琼 Michelle Yeoh
          托尼·贾 Tony Jaa
          郑嘉颖 Kevin Cheng
          周秀娜 Chrissie Chaw
          谭耀文 Patrick Tam
          释彦能 Xingyu Shi
          姜皓文 Philip Keung Ho-Man
          栢天男 Adam Pak
          元华 Wah Yuen

    ◎简  介
      作为《叶问》系列影片,电影《叶问外传:张天志》延续了《叶问3》的故事,讲述了同为咏春传人的张天志在比武惜败叶问后,决意放下功夫、远离江湖纷争,但面对接踵而至的连番挑衅,面对家国大义遭受的恶意侵犯,决定重拾咏春惩戒毒贩、“以武之道”捍卫民族道义尊严的故事。张晋联合杨紫琼、托尼·贾、戴夫·巴蒂斯塔、郑嘉颖等中外最强功夫打星阵容,为观众呈现咏春、泰拳、西洋拳、洪拳、少林等中外功夫的“硬杠”对抗。影片突破银幕上常见的英雄形象,不仅让观众看到一名“失意英雄”的重新崛起,更能在一场场精心设计的打戏中体会高手间的彼此试探、挚友间的切磋较量、正义中的胜负抗衡……


    获奖记录
    台湾电影金马奖(2018;第55届)
    提名
    ·金马奖-最佳动作设计

    1. Video
    2. ID : 1
    3. Format : AVC
    4. Format/Info : Advanced Video Codec
    5. Format profile : [email protected]
    6. Format settings : CABAC / 4 Ref Frames
    7. Format settings, CABAC : Yes
    8. Format settings, ReFrames : 4 frames
    9. Codec ID : V_MPEG4/ISO/AVC
    10. Duration : 1 h 47 min
    11. Bit rate : 11.0 Mb/s
    12. Width : 1 920 pixels
    13. Height : 858 pixels
    14. Display aspect ratio : 2.25:1
    15. Frame rate mode : Constant
    16. Frame rate : 24.000 FPS
    17. Color space : YUV
    18. Chroma subsampling : 4:2:0
    19. Bit depth : 8 bits
    20. Scan type : Progressive
    21. Bits/(Pixel*Frame) : 0.279
    22. Stream size : 8.29 GiB (88%)
    23. Title : Master.Z.Ip.Man.Legacy.2018.CHINESE.1080p.BluRay.x264.DTS-CHD
    24. Writing library : x264 core 155 r2867+74 66b5600 t_mod_Custom_2 [[email protected] X86_64]
    25. Encoding settings : cabac=1 / ref=4 / deblock=1:-3:-3 / analyse=0x3:0x133 / me=umh / subme=10 / psy=1 / fade_compensate=0.00 / psy_rd=0.95:0.10 / mixed_ref=1 / me_range=48 / chroma_me=1 / trellis=2 / 8x8dct=1 / cqm=0 / deadzone=21,11 / fast_pskip=0 / chroma_qp_offset=-4 / threads=18 / lookahead_threads=3 / sliced_threads=0 / nr=0 / decimate=1 / interlaced=0 / bluray_compat=0 / constrained_intra=0 / fgo=0 / bframes=8 / b_pyramid=2 / b_adapt=2 / b_bias=0 / direct=3 / weightb=1 / open_gop=0 / weightp=2 / keyint=250 / keyint_min=24 / scenecut=40 / intra_refresh=0 / rc_lookahead=60 / rc=crf / mbtree=0 / crf=19.0000 / qcomp=0.70 / qpmin=0:0:0 / qpmax=69:69:69 / qpstep=4 / vbv_maxrate=35000 / vbv_bufsize=35000 / crf_max=0.0 / nal_hrd=none / filler=0 / ip_ratio=1.40 / pb_ratio=1.30 / aq=3:1.00 / aq-sensitivity=10.00 / aq-factor=1.00:1.00:1.00 / aq2=0 / aq3=2:[0.50:0.50]:[0.50:0.50]:[0.50:0.50]:[0.50:0.50] / aq3-sensitivity=10.00 / aq3-factor=[1.00:1.00]:[1.00:1.00]:[1.00:1.00] / aq3-boundary=192:64:24
    26. Language : Chinese
    27. Default : Yes
    28. Forced : No

    29. Audio
    30. ID : 2
    31. Format : DTS
    32. Format/Info : Digital Theater Systems
    33. Codec ID : A_DTS
    34. Duration : 1 h 47 min
    35. Bit rate mode : Constant
    36. Bit rate : 1 509 kb/s
    37. Channel(s) : 6 channels
    38. Channel layout : C L R Ls Rs LFE
    39. Sampling rate : 48.0 kHz
    40. Frame rate : 93.750 FPS (512 SPF)
    41. Bit depth : 24 bits
    42. Compression mode : Lossy
    43. Stream size : 1.13 GiB (12%)
    44. Title : Master.Z.Ip.Man.Legacy.2018.CHINESE.1080p.BluRay.x264.DTS-CHD
    45. Language : Chinese
    46. Default : Yes
    47. Forced : No

    48. Text
    49. ID : 3
    50. Format : UTF-8
    51. Codec ID : S_TEXT/UTF8
    52. Codec ID/Info : UTF-8 Plain Text
    53. Duration : 1 h 44 min
    54. Bit rate : 36 b/s
    55. Count of elements : 1293
    56. Stream size : 28.1 KiB (0%)
    57. Language : English
    58. Default : Yes
    59. Forced : Yes
    复制代码







    游客,如果您要查看本帖隐藏内容请回复,如果您想无广告、免回复、下载附件免影视币请开通VIP:VIP传送门


    提示:如迅雷下载提示"任务出错"、"因版权无法下载",请更换【迅雷5】
    2#
    发表于 前天 22:50 | 只看该作者
    reeeeeeeeeeeeeeeeeeeeeeeeeeeeee
    3#
    发表于 前天 22:54 | 只看该作者
    谢谢分享强烈支持
    4#
    发表于 前天 22:57 | 只看该作者
    谢谢分享强烈支持
    5#
    发表于 前天 23:02 | 只看该作者
    楼主发贴辛苦了,谢谢楼主分享!我觉得古哥影视的电影是最值得收藏的!
    6#
    发表于 前天 23:22 | 只看该作者
    叶问外传张天志
    7#
    发表于 前天 23:47 | 只看该作者
    zhichizhangjing
    8#
    发表于 前天 23:52 | 只看该作者
    谢谢分享强烈支持
    9#
    发表于 前天 23:54 | 只看该作者
    谢谢分享 下载收藏哦
    10#
    发表于 昨天 00:01 | 只看该作者
    谢谢分享,一直在等这部叶问外传
    11#
    发表于 昨天 00:20 | 只看该作者
    楼主发贴辛苦了,谢谢楼主分享!我觉得古哥影视的电影是最值得收藏的!
    12#
    发表于 昨天 00:24 | 只看该作者
    谢谢分享强烈支持
    13#
    发表于 昨天 00:30 | 只看该作者
    感谢楼主分享
    14#
    发表于 昨天 00:43 | 只看该作者
    好看的功夫片越来越少了??!
    15#
    发表于 昨天 00:54 | 只看该作者
    下载看看怎样啊啊 啊
    16#
    发表于 昨天 01:01 | 只看该作者
    版主辛苦了~!帝国长存
    17#
    发表于 昨天 01:46 | 只看该作者

    谢谢分享强烈支持
    18#
    发表于 昨天 05:14 | 只看该作者
    感谢分享好电影?。?!
    19#
    发表于 昨天 06:56 | 只看该作者
    有点搞不懂状况,感谢楼主!
    20#
    发表于 昨天 07:00 | 只看该作者
    dfgdsfgsdfgdsfgdsfg
    懒得打字嘛,点击右侧快捷回复->
    您需要登录后才可以回帖 登录 | 注册(分享大片)

    本版积分规则

    福建十一选五开奖
    本站提供网上学习交流和自由讨论使用,所有资源均来自互联网公开渠道,发布和个人言论并不代表本站立场,本站不负任何责任.
    如发现有侵权行为,请与我们联系.我们将立刻从网站上删除,并向所有持版权者致最深歉意.
    影视帝国论坛已经安全运行

    福建十一选五开奖

    QQ|小黑屋|手机版|Archiver|福建十一选五开奖 ( 苏ICP备12074540号 )

    GMT+8, 2019-3-18 21:46 , Processed in 0.255608 second(s), 22 queries , Gzip On.

    Powered by Discuz! X3.2

    © 2001-2013 Comsenz Inc.

    快速回复 福建十一选五开奖 返回列表
  • 图说互联网(21期)iPhone的10年 下一个10年属于谁? 2019-04-10
  • 2016年兰州市政府网站留言办理获网民好评 2019-04-09
  • 八宝山革命公墓开展红色主题活动 2019-04-09
  • 说你好,就是好,不好也得好。 2019-04-04
  • 哦。对了,那些成天嚷嚷“亲不亲,阶级亲”的人应该把这些货真价实的“无铲阶级”接回家去。[哈哈] 2019-04-04
  • 一件常识的事情都没有讲清楚,还自称懂逻辑?无理可说了,就瞎扯。别人小学有没有毕业与你何干。 2019-03-23
  • (原创首发)法治不行,正义难成,法治有力,正义显功。 2019-03-23
  • 以大众传媒搭建心灵之桥(大家手笔) 2019-03-19
  • 打持久战不好,打速决战——将中美贸易快速引导到清零——美国就受不了了——然后由我主导休战谈判。效果是“两败俱不伤”,用我的体制力平息真正的贸易战,夺回主动权! 2019-03-19
  • 重判梁天琦法官遭网络暴力 港司法机构:已转律政司跟进 2019-03-07
  • 吴舜泽:环保产业高质量发展非常重要 2019-03-03
  • 《格萨尔》史诗汉译本数量达15部350万余字 2018-11-30
  • 高清:中国男篮抵达洛杉矶 长途飞行队员略显疲惫 2018-11-30