• 《格萨尔》史诗汉译本数量达15部350万余字 2018-11-30
  • 高清:中国男篮抵达洛杉矶 长途飞行队员略显疲惫 2018-11-30
  • 720P高清电影

     找回密码
     注册

    QQ登录

    只需一步,快速开始

    查看: 3772|回复: 9
    打印 上一主题 下一主题

    十一运夺金最大遗漏: [杂交种]The.Crossbreed.2018.720p.WEB-DL.DD5.1.H264-FGT/2.64GB

    [复制链接]

    福建十一选五开奖 www.qjc3.com 该用户从未签到

    跳转到指定楼层
    1#
    迅雷电影下载


    ◎译  名 杂交种
    ◎片  名 The Crossbreed
    ◎年  代 2018
    ◎产  地 美国
    ◎类  别 惊悚/恐怖
    ◎语  言 英语
    ◎上映日期 2018-04-13(美国)
    ◎IMDb评分  4.2/10 from 22 users
    ◎电影下载   福建十一选五开奖     IMDB网址  //www.imdb.com/title/tt6205996/
    ◎BT之家整理 //www.btbtt.me/
    ◎导  演 Biray Dalkiran

    ◎简  介

      The nightmare was about a demonic possession. A long time ago, there was an evil in a small town and it was jealous of the girl and would never let her go, since the devil loved the girl. One night, the evil raped the girl and she became pregnant. After months the girl could not hide her baby, her father figured her secret out and clapped the girl in irons and locked her room door. But the evil put the gun to her father' temple and saved the girl. The father had a stroke and had been sleeping on the bed for three months and died. Time went on and the girl brought a child into the world. Naturally, people who were living in the village heard the story and they did not want to see neither the girl nor the baby since when the baby was born, plants dried in the field, fishes lost in the lake and people had prayed to the god for rain, but nothing changed in the village. People got so angry, dug a hole in front of the fountain, put her into the hole and threw stones at her face. The girl died soon after. The evil went off the deep end, took a revenge of the village and killed everyone except two sisters because the evil wanted them to take care of its baby...

    Video
    ID                                       : 1
    Format                                   : AVC
    Format/Info                              : Advanced Video Codec
    Format profile                           : [email protected]
    Format settings                          : 2 Ref Frames
    Format settings, CABAC                   : No
    Format settings, ReFrames                : 2 frames
    Codec ID                                 : V_MPEG4/ISO/AVC
    Duration                                 : 1 h 25 min
    Bit rate                                 : 4 050 kb/s
    Width                                    : 1 280 pixels
    Height                                   : 562 pixels
    Display aspect ratio                     : 2.25:1
    Frame rate mode                          : Constant
    Frame rate                               : 23.976 (23976/1000) FPS
    Color space                              : YUV
    Chroma subsampling                       : 4:2:0
    Bit depth                                : 8 bits
    Scan type                                : Progressive
    Bits/(Pixel*Frame)                       : 0.235
    Stream size                              : 2.41 GiB (91%)
    Title                                    : The.Crossbreed.2018.720p.WEB-DL.DD5.1.H264-FGT
    Language                                 : English
    Default                                  : Yes
    Forced                                   : No
    Color range                              : Limited
    Color primaries                          : BT.709
    Transfer characteristics                 : BT.709
    Matrix coefficients                      : BT.709

    Audio
    ID                                       : 2
    Format                                   : AC-3
    Format/Info                              : Audio Coding 3
    Codec ID                                 : A_AC3
    Duration                                 : 1 h 25 min
    Bit rate mode                            : Constant
    Bit rate                                 : 384 kb/s
    Channel(s)                               : 6 channels
    Channel positions                        : Front: L C R, Side: L R, LFE
    Sampling rate                            : 48.0 kHz
    Frame rate                               : 31.250 FPS (1536 SPF)
    Bit depth                                : 16 bits
    Compression mode                         : Lossy
    Delay relative to video                  : -42 ms
    Stream size                              : 234 MiB (9%)
    Title                                    : The.Crossbreed.2018.720p.WEB-DL.DD5.1.H264-FGT
    Language                                 : English
    Service kind                             : Complete Main
    Default                                  : Yes
    Forced                                   : No

    Menu
    00:00:00.000                             : en:1
    00:08:59.539                             : en:2
    00:19:11.692                             : en:3
    00:30:47.971                             : en:4
    00:39:41.087                             : en:5
    00:51:58.741                             : en:6
    01:01:23.472                             : en:7
    01:12:56.623                             : en:8
    01:23:23.416                             : en:9





    The.Crossbreed.2018.720p.WEB-DL.DD5.1.H264-FGT.torrent (53.36 KB, 下载次数: 20)

    点评

    海!外直播 t.cn/RxmJTRo 禁闻视频 t.cn/RJvO78S 记者:暴雨村里有房子有倒的吗?老乡:没倒塌,拆迁办比洪水来得早。记者:地里庄稼被冲了吧? 老乡:真的没有!开发商也比洪水来得早,地早征走了。  发表于 2018-3-9 01:33
  • TA的每日心情
    开心
    昨天 06:56
  • 签到天数: 254 天

    [LV.8]以坛为家I

    2#
    古藤书斋 发表于 2018-3-8 10:56:49 | 只看该作者
    首席支持管理员,还没有上映就有了,杂交种也是袁隆平研究的吧!

    点评

    各类少女视频 少女套图 查看网址: m5pa.com   发表于 2018-9-23 07:22
    各类少女视频 少女套图 查看网址: m5pa.com   发表于 2018-9-22 21:20
    各类少女视频 少女套图 查看网址: uai15.com 或 百度搜索“少女地带”  发表于 2018-3-9 02:14
    各类少女视频 少女套图 查看网址: uai15.com 或 百度搜索“少女地带”  发表于 2018-3-8 11:37
  • TA的每日心情
    开心
    2018-4-3 17:34
  • 签到天数: 1 天

    [LV.1]初来乍到

    3#
    yy980622 发表于 2018-4-3 17:59:51 | 只看该作者
    感谢楼主分享!

    该用户从未签到

    4#
    大雪崩神掌 发表于 2018-5-14 15:46:52 | 只看该作者
    不知道怎么样,支持一下

    该用户从未签到

    5#
    lseeees 发表于 2018-7-28 11:29:56 | 只看该作者
    感谢楼主分享!
    您需要登录后才可以回帖 登录 | 注册

    本版积分规则

    福建十一选五开奖免责声明
    本站提供网上学习交流和自由讨论使用,所有资源发布和个人言论并不代表本站立场,本站不负任何责任.如发现有侵权行为,请与我们联系.
    我们将立刻从网站上删除,并向所有持版权者致最深歉意.

    QQ|小黑屋|手机版|Archiver|福建十一选五开奖 ( 苏ICP备10218186号 )

    GMT+8, 2018-11-21 03:33 , Processed in 0.187500 second(s), 31 queries , Gzip On.

    Powered by Discuz! X3.2

    © 2001-2013 Comsenz Inc.

    快速回复 福建十一选五开奖 返回列表
  • 《格萨尔》史诗汉译本数量达15部350万余字 2018-11-30
  • 高清:中国男篮抵达洛杉矶 长途飞行队员略显疲惫 2018-11-30