• 《格萨尔》史诗汉译本数量达15部350万余字 2018-11-30
  • 高清:中国男篮抵达洛杉矶 长途飞行队员略显疲惫 2018-11-30
  • 720P高清电影

     找回密码
     注册

    QQ登录

    只需一步,快速开始

    查看: 34|回复: 1
    打印 上一主题 下一主题

    福建十一选五前三走势: [情满四合院]Full.House.2015.EP01-46.1080p.WEB-DL.x264.AAC-HQC[82.47GB]

    [复制链接]
  • TA的每日心情
    郁闷
    昨天 15:03
  • 福建十一选五开奖 www.qjc3.com 签到天数: 137 天

    [LV.7]常住居民III

    跳转到指定楼层
    1#
    迅雷电影下载
    电影海报
    3272491f-c93a-4f78-96dd-4f75f432ac1b.jpg (114.18 KB, 下载次数: 0)
    影片信息
    ◎译  名 Full House
    ◎片  名 情满四合院/傻柱/邻里一家亲
    ◎年  代 2014年
    ◎国  家 中国大陆
    ◎类  别 剧情
    ◎语  言 汉语普通话
    ◎IMDB评分  8.1/10 (8 votes)
    ◎IMDB网址  //www.imdb.com/title/tt5483478/
    ◎豆瓣评分  8.1/10 (12,590 votes)
    ◎豆瓣链接  https://movie.douban.com/subject/26287786/
    ◎时光评分  0/10 (18 votes)
    ◎时光链接  //movie.mtime.com/251527/
    ◎文件格式 X264 + AAC
    ◎视频尺寸 1920 x 1080
    ◎文件大小 82.47GiB
    ◎片  长 45 Min/集
    ◎编  剧 王之理 Zhili Wang
    ◎导  演 刘家成 Jiacheng Liu
    ◎主  演 何  冰 Bing He
          郝  蕾 Lei Hao
          李光复 Guangfu Li
          方子哥 Zige Fang
          卫紫冰 Zibing Wei
          海一天 Yitian Hai
          刘园园 Yuanyuan Liu
          李文玲
          沙景昌
          鲁  园
          滕  旋
          花  菲
          倪大红
          毕彦君
          沈丹萍
          王  冕
          赵紫萱
          曹  琦
          崔艺宝
          吴洲凯
          战立国
          康益豪
          宫筱轩
          姚中华
          王  鲁
          苗  亮

    内容简介
      本剧讲述了从上世纪六十年代到九十年代发生在北京四合院里的故事。何雨柱是钢厂食堂的厨师,为人善良仗义却口无遮拦,人称“傻柱”。同院住着钢厂工人秦淮茹,她讲孝道,又能干,膝下有一儿两女,但丈夫因工伤去世,日子过得比较艰难。院里住着钢厂放映员许大茂,为人自私自利,跟傻柱是对头。院里还住着三位受人尊敬的老工人,人称“三位大爷”,一旦院里发生邻里纠纷,都由三位大爷协调解决。傻柱看似不着调,却心地善良,不仅对秦淮茹一家的生活资助颇多,还为孤寡老人聋奶奶养老送终。傻柱在与邻里之间的相处中逐渐成熟起来,有了男人的责任与担当。在改革开放的春风下,傻柱开办饭店,并把四合院改建成养老院,和所有的“邻里家人”幸福和睦地生活在一起。
    截图预览
    1.jpg (362.8 KB, 下载次数: 0) 2.jpg (350.74 KB, 下载次数: 0)
    3.jpg (238.52 KB, 下载次数: 0) 4.jpg (294.06 KB, 下载次数: 0)
    参数信息
    1. General
    2. Complete name                  : Full.House.2015.EP01-46.1080p.WEB-DL.x264.AAC-HQC
    3. Format                         : MPEG-4
    4. Format profile                 : Base Media
    5. Codec ID                       : isom (isom/avc1)
    6. File size                      : 1.96 GiB
    7. Duration                       : 44 min 59 s
    8. Overall bit rate mode          : Variable
    9. Overall bit rate               : 6 234 kb/s
    10. Encoded date                   : UTC 2017-09-30 02:00:05
    11. Tagged date                    : UTC 2017-09-30 02:00:05
    12. Copyright                      : PPTV-2.4.0.(20,20)[1]

    13. Video
    14. ID                             : 1
    15. Format                         : AVC
    16. Format/Info                    : Advanced Video Codec
    17. Format profile                 : [email protected]
    18. Format settings                : CABAC / 4 Ref Frames
    19. Format settings, CABAC         : Yes
    20. Format settings, ReFrames      : 4 frames
    21. Codec ID                       : avc1
    22. Codec ID/Info                  : Advanced Video Coding
    23. Duration                       : 44 min 59 s
    24. Bit rate                       : 6 000 kb/s
    25. Maximum bit rate               : 13.2 Mb/s
    26. Width                          : 1 920 pixels
    27. Height                         : 1 080 pixels
    28. Display aspect ratio           : 16:9
    29. Frame rate mode                : Constant
    30. Frame rate                     : 25.000 FPS
    31. Color space                    : YUV
    32. Chroma subsampling             : 4:2:0
    33. Bit depth                      : 8 bits
    34. Scan type                      : Progressive
    35. Bits/(Pixel*Frame)             : 0.116
    36. Stream size                    : 1.90 GiB (97%)
    37. Title                          : VideoByEZMediaEditor
    38. Writing library                : x264()-core 129 - H.264/MPEG-4
    39. Encoding settings              : cabac=1 / ref=4 / deblock=1:0:0 / analyse=0x3:0x133 / me=umh / subme=9 / psy=1 / psy_rd=0.00:0.00 / mixed_ref=1 / me_range=24 / chroma_me=1 / trellis=2 / 8x8dct=1 / cqm=0 / deadzone=21,11 / fast_pskip=0 / chroma_qp_offset=0 / threads=40 / lookahead_threads=6 / sliced_threads=0 / nr=0 / decimate=1 / interlaced=0 / bluray_compat=0 / constrained_intra=0 / bframes=4 / b_pyramid=2 / b_adapt=0 / b_bias=0 / direct=3 / weightb=1 / open_gop=0 / weightp=2 / keyint=250 / keyint_min=25 / scenecut=40 / intra_refresh=0 / rc_lookahead=60 / rc=abr / mbtree=1 / bitrate=6000 / ratetol=1.0 / qcomp=0.60 / qpmin=0 / qpmax=69 / qpstep=4 / vbv_maxrate=12000 / vbv_bufsize=6000 / nal_hrd=none / ip_ratio=1.40 / aq=1:1.00
    40. Encoded date                   : UTC 2017-09-30 02:00:05
    41. Tagged date                    : UTC 2017-09-30 02:00:14
    42. Codec configuration box        : avcC

    43. Audio
    44. ID                             : 2
    45. Format                         : AAC LC
    46. Format/Info                    : Advanced Audio Codec Low Complexity
    47. Codec ID                       : mp4a-40-2
    48. Duration                       : 44 min 59 s
    49. Bit rate mode                  : Variable
    50. Bit rate                       : 192 kb/s
    51. Maximum bit rate               : 198 kb/s
    52. Channel(s)                     : 2 channels
    53. Channel layout                 : L R
    54. Sampling rate                  : 44.1 kHz
    55. Frame rate                     : 43.066 FPS (1024 SPF)
    56. Compression mode               : Lossy
    57. Stream size                    : 61.0 MiB (3%)
    58. Title                          : Audio1-English
    59. Language                       : English
    60. Encoded date                   : UTC 2017-09-30 02:00:13
    61. Tagged date                    : UTC 2017-09-30 02:00:14
    复制代码
    下载地址

    游客,如果您要查看本帖隐藏内容请回复,如果您想无广告、免回复、下载附件免4K币请开通VIP会员:VIP传送门



    该用户从未签到

    2#
    ljy6327383 发表于 前天 11:23 | 只看该作者
    RE: [情满四合院]Full.House.2015.EP01-46.1080p.WEB-DL.x
    您需要登录后才可以回帖 登录 | 注册

    本版积分规则

    福建十一选五开奖免责声明
    本站提供网上学习交流和自由讨论使用,所有资源发布和个人言论并不代表本站立场,本站不负任何责任.如发现有侵权行为,请与我们联系.
    我们将立刻从网站上删除,并向所有持版权者致最深歉意.

    QQ|小黑屋|手机版|Archiver|福建十一选五开奖 ( 苏ICP备10218186号 )

    GMT+8, 2018-11-16 04:34 , Processed in 0.187500 second(s), 33 queries , Gzip On.

    Powered by Discuz! X3.2

    © 2001-2013 Comsenz Inc.

    快速回复 福建十一选五开奖 返回列表
  • 《格萨尔》史诗汉译本数量达15部350万余字 2018-11-30
  • 高清:中国男篮抵达洛杉矶 长途飞行队员略显疲惫 2018-11-30